<?xml version="1.0" standalone="no"?>
<!DOCTYPE svg PUBLIC "-//W3C//DTD SVG 1.1//EN" "http://www.w3.org/Graphics/SVG/1.1/DTD/svg11.dtd" >
<svg xmlns="http://www.w3.org/2000/svg" xmlns:xlink="http://www.w3.org/1999/xlink" version="1.1">
<metadata>
Created by FontForge 20150824 at Thu Feb 18 06:09:58 2016
 By Everything Fonts
(c)1999, converted to Greek by Hector Haralambous for Cannibal Fonts
</metadata>
<defs>
<font id="CfDinGrCondensed" horiz-adv-x="389" >
  <font-face 
    font-family="Cf DinGrCondensed"
    font-weight="400"
    font-stretch="normal"
    units-per-em="1000"
    panose-1="0 0 4 0 0 0 0 0 0 0"
    ascent="800"
    descent="-200"
    x-height="507"
    cap-height="712"
    bbox="-54 -250 1000 858"
    underline-thickness="50"
    underline-position="-125"
    unicode-range="U+0020-2122"
  />
<missing-glyph horiz-adv-x="500" 
d="M63 0v750h375v-750h-375zM125 63h250v625h-250v-625z" />
    <glyph glyph-name=".notdef" horiz-adv-x="500" 
d="M63 0v750h375v-750h-375zM125 63h250v625h-250v-625z" />
    <glyph glyph-name="NULL" horiz-adv-x="0" 
 />
    <glyph glyph-name="nonmarkingreturn" horiz-adv-x="186" 
 />
    <glyph glyph-name="space" unicode=" " horiz-adv-x="186" 
 />
    <glyph glyph-name="exclam" unicode="!" horiz-adv-x="240" 
d="M95 176l-39 536h128l-39 -536h-50zM69 0v102h102v-102h-102z" />
    <glyph glyph-name="quotedbl" unicode="&#x22;" horiz-adv-x="278" 
d="M33 536v176h80v-176h-80zM165 536v176h80v-176h-80z" />
    <glyph glyph-name="numbersign" unicode="#" horiz-adv-x="372" 
d="M180 0l29 215h-84l-29 -215h-68l29 215h-51v60h59l22 162h-50v60h58l29 215h68l-29 -215h84l29 215h68l-29 -215h51v-60h-59l-22 -162h50v-60h-58l-29 -215h-68zM217 275l22 162h-84l-22 -162h84z" />
    <glyph glyph-name="dollar" unicode="$" horiz-adv-x="372" 
d="M161 437v179q-43 -16 -43 -92q0 -39 7 -55q8 -19 36 -32zM212 304v-208q30 7 40 35q7 21 7 71q0 45 -5 60q-9 28 -42 42zM161 -90v84q-65 8 -107.5 54.5t-42.5 112.5v40h102v-36q0 -58 48 -69v230l-34 14q-63 26 -88 72q-23 40 -23 111q0 79 37.5 132.5t107.5 62.5v75h51
v-75q66 -8 109 -56q40 -47 40 -105v-50h-102v23q0 71 -47 86v-201l42 -17q64 -26 87 -72q20 -40 20 -123q0 -194 -149 -209v-84h-51z" />
    <glyph glyph-name="percent" unicode="%" horiz-adv-x="352" 
d="M94 555q25 0 25 26v51q0 26 -25 26t-25 -26v-51q0 -26 25 -26zM94 495q-39 0 -62 21t-23 55v65q0 38 23 60t62 22t62 -22t23 -60v-65q0 -34 -23 -55t-62 -21zM233 131v-51q0 -26 25 -26t25 26v51q0 26 -25 26t-25 -26zM258 -6q-39 0 -62 21t-23 55v65q0 38 23 60t62 22
t62 -22t23 -60v-65q0 -34 -23 -55t-62 -21zM21 0l244 712h66l-244 -712h-66z" />
    <glyph glyph-name="ampersand" unicode="&#x26;" horiz-adv-x="481" 
d="M353 0l-34 54q-60 -60 -136 -60q-62 0 -104.5 46t-42.5 119q0 98 98 185q-62 88 -62 164q0 60 36.5 99t102.5 39q63 0 99 -37t36 -92q0 -86 -104 -179q30 -49 94 -149l55 75l63 -44l-76 -98l77 -122h-102zM126 164q0 -37 21.5 -63.5t54.5 -26.5q42 0 76 43l-98 156
q-54 -56 -54 -109zM162 506q0 -39 39 -103q61 59 61 112q0 20 -13.5 35.5t-35.5 15.5t-36.5 -18t-14.5 -42z" />
    <glyph glyph-name="quotesingle" unicode="'" horiz-adv-x="186" 
d="M53 536v176h80v-176h-80z" />
    <glyph glyph-name="parenleft" unicode="(" horiz-adv-x="222" 
d="M169 712h34q-51 -179 -51 -434q0 -193 51 -378h-34q-58 83 -89 198q-30 106 -30 208q0 104 32 213.5t87 192.5z" />
    <glyph glyph-name="parenright" unicode=")" horiz-adv-x="222" 
d="M53 -100h-34q51 179 51 434q0 193 -51 378h34q58 -83 90 -198q29 -106 29 -208q0 -104 -32 -213.5t-87 -192.5z" />
    <glyph glyph-name="asterisk" unicode="*" horiz-adv-x="370" 
d="M31 604l28 52l98 -60l-4 116h64l-4 -116l98 60l28 -52l-100 -56l100 -55l-28 -53l-98 60l4 -116h-64l4 116l-98 -60l-28 53l100 55z" />
    <glyph glyph-name="plus" unicode="+" horiz-adv-x="600" 
d="M260 293v213h80v-213h213v-80h-213v-213h-80v213h-213v80h213z" />
    <glyph glyph-name="comma" unicode="," horiz-adv-x="186" 
d="M42 -74v176h102v-102z" />
    <glyph glyph-name="hyphen" unicode="-" 
d="M44 226v102h301v-102h-301z" />
    <glyph glyph-name="hyphen" unicode="&#xad;" 
d="M44 226v102h301v-102h-301z" />
    <glyph glyph-name="period" unicode="." horiz-adv-x="186" 
d="M42 0v102h102v-102h-102z" />
    <glyph glyph-name="slash" unicode="/" horiz-adv-x="222" 
d="M5 -6l132 724h80l-132 -724h-80z" />
    <glyph glyph-name="zero" unicode="0" horiz-adv-x="372" 
d="M34 147v418q0 69 46 112q43 41 106 41t107.5 -42t44.5 -111v-418q0 -69 -44.5 -111t-107.5 -42t-106 41q-46 43 -46 112zM136 565v-418q0 -22 14 -36.5t36 -14.5t36 14.5t14 36.5v418q0 22 -14 36.5t-36 14.5t-36 -14.5t-14 -36.5z" />
    <glyph glyph-name="one" unicode="1" horiz-adv-x="372" 
d="M155 0v604l-102 -75v108l102 75h102v-712h-102z" />
    <glyph glyph-name="two" unicode="2" horiz-adv-x="372" 
d="M34 0v96l184 347q18 34 18 94q0 38 -6 53q-11 26 -44 26q-50 0 -50 -51v-58h-102v56q0 64 44.5 109.5t108.5 45.5q75 0 115 -54q36 -48 36 -125q0 -54 -5 -77q-6 -27 -29 -71l-150 -289h184v-102h-304z" />
    <glyph glyph-name="three" unicode="3" horiz-adv-x="372" 
d="M155 322v90q44 0 59 8q22 13 22 54v92q0 50 -50 50q-25 0 -37.5 -15.5t-12.5 -34.5v-58h-102v59q0 63 45.5 107t108.5 44q69 0 111 -50q22 -26 30 -53q9 -33 9 -98q0 -74 -10 -98.5t-53 -50.5q45 -28 55 -58q8 -23 8 -105q0 -57 -2 -76q-5 -41 -25 -70q-44 -65 -126 -65
q-58 0 -100 34q-51 41 -51 118v58h102v-53q0 -55 50 -55t50 57v102q0 41 -15.5 54t-65.5 13z" />
    <glyph glyph-name="four" unicode="4" horiz-adv-x="372" 
d="M212 0v106h-203v96l147 510h108l-153 -510h101v203h102v-203h49v-96h-49v-106h-102z" />
    <glyph glyph-name="five" unicode="5" horiz-adv-x="372" 
d="M338 712v-96h-202v-192q35 33 85 33q53 0 85 -33t32 -93v-184q0 -69 -44.5 -111t-107.5 -42t-106 41q-46 43 -46 112v30h102v-26q0 -55 52 -55q48 0 48 53v167q0 21 -13.5 36t-34.5 15q-32 0 -52 -39h-90v384h292z" />
    <glyph glyph-name="six" unicode="6" horiz-adv-x="372" 
d="M34 147v418q0 69 46 112q43 41 106 41t107.5 -42t44.5 -111h-102q0 22 -14 36.5t-36 14.5t-36 -14.5t-14 -36.5v-96q49 23 94 23q56 0 86 -46q22 -34 22 -94v-205q0 -69 -44.5 -111t-107.5 -42t-106 41q-46 43 -46 112zM136 351v-204q0 -22 15 -36.5t35 -14.5t35 14.5
t15 36.5v204q0 22 -15 36.5t-35 14.5t-35 -14.5t-15 -36.5z" />
    <glyph glyph-name="seven" unicode="7" horiz-adv-x="372" 
d="M57 0l179 616h-112v-82h-90v178h304v-102l-173 -610h-108z" />
    <glyph glyph-name="eight" unicode="8" horiz-adv-x="372" 
d="M236 462v104q0 21 -15 35.5t-35 14.5t-35 -14.5t-15 -35.5v-104q0 -21 15 -35.5t35 -14.5t35 14.5t15 35.5zM34 526q0 56 8 85q8 25 29 52q43 55 115 55t115 -55q21 -27 29 -52q8 -29 8 -85q0 -69 -7 -93q-9 -31 -44 -59q35 -26 44 -61q7 -27 7 -114q0 -63 -6 -92
q-6 -25 -22 -50q-42 -63 -124 -63t-124 63q-16 25 -22 50q-6 29 -6 92q0 87 7 114q9 35 44 61q-35 28 -44 59q-7 24 -7 93zM236 146v140q0 21 -15 35.5t-35 14.5t-35 -14.5t-15 -35.5v-140q0 -21 15 -35.5t35 -14.5t35 14.5t15 35.5z" />
    <glyph glyph-name="nine" unicode="9" horiz-adv-x="372" 
d="M34 360v205q0 69 46 112q43 41 106 41t107.5 -42t44.5 -111v-418q0 -69 -44.5 -111t-107.5 -42t-106 41q-46 43 -46 112h102q0 -22 14 -36.5t36 -14.5t36 14.5t14 36.5v96q-49 -23 -94 -23q-56 0 -86 46q-22 34 -22 94zM136 565v-204q0 -22 15 -36.5t35 -14.5t35 14.5
t15 36.5v204q0 22 -15 36.5t-35 14.5t-35 -14.5t-15 -36.5z" />
    <glyph glyph-name="colon" unicode=":" horiz-adv-x="186" 
d="M42 0v102h102v-102h-102zM42 227v102h102v-102h-102z" />
    <glyph glyph-name="semicolon" unicode=";" horiz-adv-x="186" 
d="M42 -74v176h102v-102zM42 227v102h102v-102h-102z" />
    <glyph glyph-name="semicolon" unicode="&#x37e;" horiz-adv-x="186" 
d="M42 -74v176h102v-102zM42 227v102h102v-102h-102z" />
    <glyph glyph-name="less" unicode="&#x3c;" horiz-adv-x="600" 
d="M553 514v-80l-397 -181l397 -181v-80l-506 231v60z" />
    <glyph glyph-name="equal" unicode="=" horiz-adv-x="600" 
d="M47 313v80h506v-80h-506zM47 113v80h506v-80h-506z" />
    <glyph glyph-name="greater" unicode="&#x3e;" horiz-adv-x="600" 
d="M47 -8v80l397 181l-397 181v80l506 -231v-60z" />
    <glyph glyph-name="question" unicode="?" horiz-adv-x="370" 
d="M32 507v59q0 63 45 107.5t109 44.5q48 0 86 -26.5t55 -70.5q11 -28 11 -82q0 -87 -16 -114l-69 -118q-17 -29 -17 -51v-80h-102v93q0 40 25 81l64 104q13 21 13 58v53q0 21 -14.5 36t-35.5 15q-20 0 -36 -14t-16 -37v-58h-102zM134 0v102h102v-102h-102z" />
    <glyph glyph-name="at" unicode="@" horiz-adv-x="800" 
d="M513 410q0 37 -19.5 60t-54.5 23q-62 0 -110 -66q-44 -61 -44 -129q0 -87 83 -87q54 0 101 70q44 65 44 129zM639 548l-87 -275q-10 -32 -10 -45q0 -29 23 -29q47 0 91.5 71t44.5 144q0 103 -81 172q-78 66 -187 66q-124 0 -213 -90t-89 -209q0 -123 89 -208t218 -85
q71 0 139 30.5t104 74.5h77q-48 -80 -136.5 -125.5t-191.5 -45.5q-158 0 -267 104t-109 260q0 149 111.5 254.5t266.5 105.5q144 0 245 -85t101 -214q0 -116 -82 -203q-73 -77 -146 -77q-70 0 -78 63h-2q-59 -63 -122 -63t-103 44t-40 108q0 105 65 187q68 87 169 87
q86 0 115 -78h2l20 61h63z" />
    <glyph glyph-name="A" unicode="A" horiz-adv-x="407" 
d="M254 249l-50 258h-2l-50 -258h102zM2 0l159 712h85l159 -712h-102l-30 153h-139l-30 -153h-102z" />
    <glyph glyph-name="B" unicode="B" horiz-adv-x="426" 
d="M48 0v712h149q93 0 140 -55q41 -48 41 -125v-26q0 -53 -18 -84q-15 -25 -52 -48q70 -34 70 -140v-40q0 -194 -191 -194h-139zM150 330v-228h44q56 0 75 34q13 24 13 86q0 58 -16 81q-19 27 -71 27h-45zM150 616v-196h46q49 0 69 26q17 22 17 74q0 96 -90 96h-42z" />
    <glyph glyph-name="C" unicode="C" horiz-adv-x="407" 
d="M372 203v-44q0 -67 -47.5 -116t-114.5 -49q-69 0 -113 35q-55 44 -55 133v392q0 71 46.5 117.5t119.5 46.5q71 0 117.5 -48t46.5 -122v-40h-102v34q0 31 -17.5 52.5t-45.5 21.5q-63 0 -63 -83v-364q0 -73 62 -73q64 0 64 72v35h102z" />
    <glyph glyph-name="D" unicode="D" horiz-adv-x="426" 
d="M48 0v712h151q86 0 132.5 -48.5t46.5 -135.5v-333q0 -195 -188 -195h-142zM150 616v-520h47q79 0 79 89v343q0 88 -79 88h-47z" />
    <glyph glyph-name="E" unicode="E" horiz-adv-x="370" 
d="M48 0v712h304v-96h-202v-209h176v-96h-176v-209h202v-102h-304z" />
    <glyph glyph-name="F" unicode="F" horiz-adv-x="370" 
d="M48 0v712h304v-96h-202v-216h176v-96h-176v-304h-102z" />
    <glyph glyph-name="G" unicode="G" horiz-adv-x="426" 
d="M42 168v376q0 82 54 131q49 43 117 43t117 -43q54 -49 54 -131v-36h-102v36q0 35 -19.5 53.5t-49.5 18.5t-48 -18q-21 -19 -21 -54v-376q0 -35 21 -54q18 -18 48 -18t49.5 18.5t19.5 53.5v134h-81v90h183v-224q0 -82 -54 -130q-49 -44 -117 -44t-117 44q-54 48 -54 130z
" />
    <glyph glyph-name="H" unicode="H" horiz-adv-x="426" 
d="M48 0v712h102v-305h126v305h102v-712h-102v317h-126v-317h-102z" />
    <glyph glyph-name="I" unicode="I" horiz-adv-x="204" 
d="M51 0v712h102v-712h-102z" />
    <glyph glyph-name="J" unicode="J" horiz-adv-x="333" 
d="M285 712v-544q0 -73 -46 -122q-49 -52 -128 -52q-76 0 -133 64l80 64q26 -26 56 -26q26 0 44 16q25 23 25 70v530h102z" />
    <glyph glyph-name="K" unicode="K" horiz-adv-x="426" 
d="M48 0v712h102v-325h2l149 325h102l-139 -285l165 -427h-108l-116 316l-55 -103v-213h-102z" />
    <glyph glyph-name="L" unicode="L" horiz-adv-x="370" 
d="M48 0v712h102v-610h202v-102h-304z" />
    <glyph glyph-name="M" unicode="M" horiz-adv-x="556" 
d="M48 0v712h98l131 -377h2l130 377h99v-712h-102v433h-2l-101 -306h-51l-100 306h-2v-433h-102z" />
    <glyph glyph-name="N" unicode="N" horiz-adv-x="444" 
d="M44 0v712h98l154 -429h2v429h102v-712h-96l-156 428h-2v-428h-102z" />
    <glyph glyph-name="O" unicode="O" horiz-adv-x="426" 
d="M42 168v376q0 82 54 131q49 43 117 43t117 -43q54 -49 54 -131v-376q0 -82 -54 -130q-49 -44 -117 -44t-117 44q-54 48 -54 130zM144 544v-376q0 -35 21 -54q18 -18 48 -18t49.5 18.5t19.5 53.5v376q0 35 -19.5 53.5t-49.5 18.5t-48 -18q-21 -19 -21 -54z" />
    <glyph glyph-name="P" unicode="P" horiz-adv-x="407" 
d="M48 0v712h153q85 0 131.5 -49.5t46.5 -167.5q0 -96 -29 -143q-45 -74 -148 -74h-52v-278h-102zM150 616v-242h49q56 0 73 33q11 22 11 87q0 64 -10 86q-16 36 -70 36h-53z" />
    <glyph glyph-name="Q" unicode="Q" horiz-adv-x="426" 
d="M144 544v-376q0 -35 21 -54q18 -18 48 -18q13 0 22 4l-46 37l52 62l41 -33v378q0 35 -19.5 53.5t-49.5 18.5t-48 -18q-21 -19 -21 -54zM42 168v376q0 82 54 131q49 43 117 43t117 -43q54 -49 54 -131v-376q0 -41 -15 -73l63 -51l-52 -62l-60 49q-46 -37 -107 -37
q-68 0 -117 44q-54 48 -54 130z" />
    <glyph glyph-name="R" unicode="R" horiz-adv-x="426" 
d="M150 616v-222h58q50 0 68 29q14 23 14 82t-15 83q-19 28 -72 28h-53zM48 0v712h164q180 0 180 -209q0 -129 -88 -178l110 -325h-108l-95 304h-61v-304h-102z" />
    <glyph glyph-name="S" unicode="S" horiz-adv-x="406" 
d="M378 557v-50h-102v23q0 86 -72 86q-69 0 -69 -92q0 -44 9 -60q11 -20 49 -35l78 -31q64 -25 87 -72q20 -40 20 -123q0 -209 -176 -209q-74 0 -124 48.5t-50 120.5v38h102v-32q0 -73 72 -73q47 0 63 29q11 20 11 77q0 51 -7 67q-11 24 -52 41l-73 30q-63 26 -88 72
q-23 40 -23 111q0 85 44 138q47 57 131 57q73 0 123 -51q47 -48 47 -110z" />
    <glyph glyph-name="T" unicode="T" horiz-adv-x="332" 
d="M115 0v616h-118v96h338v-96h-118v-616h-102z" />
    <glyph glyph-name="U" unicode="U" horiz-adv-x="426" 
d="M378 712v-552q0 -69 -48 -117.5t-117 -48.5q-68 0 -116.5 48.5t-48.5 117.5v552h102v-542q0 -74 63 -74t63 74v542h102z" />
    <glyph glyph-name="V" unicode="V" horiz-adv-x="407" 
d="M394 712l-146 -712h-90l-145 712h108l81 -497h2l82 497h108z" />
    <glyph glyph-name="W" unicode="W" horiz-adv-x="593" 
d="M577 712l-106 -712h-96l-78 462h-2l-77 -462h-96l-106 712h108l51 -452h2l80 452h78l83 -463h2l49 463h108z" />
    <glyph glyph-name="X" unicode="X" 
d="M-2 0l144 373l-133 339h108l77 -211l78 211h108l-136 -339l147 -373h-108l-89 240l-88 -240h-108z" />
    <glyph glyph-name="Y" unicode="Y" horiz-adv-x="388" 
d="M143 0v301l-140 411h108l82 -283h2l82 283h108l-140 -411v-301h-102z" />
    <glyph glyph-name="Z" unicode="Z" horiz-adv-x="333" 
d="M15 0v90l192 526h-182v96h293v-81l-196 -535h196v-96h-303z" />
    <glyph glyph-name="bracketleft" unicode="[" horiz-adv-x="222" 
d="M214 712v-60h-66v-692h66v-60h-156v812h156z" />
    <glyph glyph-name="backslash" unicode="\" horiz-adv-x="222" 
d="M85 718l132 -724h-80l-132 724h80z" />
    <glyph glyph-name="bracketright" unicode="]" horiz-adv-x="222" 
d="M8 -100v60h66v692h-66v60h156v-812h-156z" />
    <glyph glyph-name="asciicircum" unicode="^" horiz-adv-x="186" 
d="M29 443q0 26 19 45t45 19t45 -19t19 -45t-19 -45t-45 -19t-45 19t-19 45z" />
    <glyph glyph-name="underscore" unicode="_" horiz-adv-x="500" 
d="M0 -125v50h500v-50h-500z" />
    <glyph glyph-name="grave" unicode="`" horiz-adv-x="186" 
d="M68 715l90 -141h-66l-132 141h108z" />
    <glyph glyph-name="a" unicode="a" horiz-adv-x="370" 
d="M235 0v52h-2q-23 -31 -41 -43q-23 -15 -57 -15q-110 0 -110 135q0 91 34.5 131.5t126.5 40.5q8 0 22 -1q18 -2 27 -2v53q0 60 -51 60q-49 0 -58 -51h-99q5 68 47 110.5t110 42.5q67 0 108 -40q45 -43 45 -120v-353h-102zM235 149v69q-16 3 -28 3q-80 0 -80 -72
q0 -65 53 -65q55 0 55 65z" />
    <glyph glyph-name="b" unicode="b" 
d="M42 0v712h102v-251h2q35 52 94 52q62 0 91 -46q16 -26 16 -123v-193q0 -78 -17 -109q-26 -48 -89 -48q-34 0 -58 15q-14 9 -39 37v-46h-102zM245 165v186q0 60 -50 60q-22 0 -36.5 -15.5t-14.5 -39.5v-197q0 -28 14 -45.5t37 -17.5q50 0 50 69z" />
    <glyph glyph-name="c" unicode="c" horiz-adv-x="370" 
d="M150 353v-207q0 -50 50 -50q45 0 50 51h102q0 -65 -42 -109t-110 -44q-93 0 -133 73q-19 35 -19 103v167q0 68 19 103q40 73 133 73q69 0 110.5 -45t41.5 -117h-102q0 60 -50 60t-50 -58z" />
    <glyph glyph-name="d" unicode="d" 
d="M144 351v-186q0 -69 50 -69q23 0 37 17.5t14 45.5v197q0 24 -14.5 39.5t-36.5 15.5q-50 0 -50 -60zM245 0v46q-25 -28 -39 -37q-24 -15 -58 -15q-63 0 -89 48q-17 31 -17 109v193q0 97 16 123q29 46 91 46q59 0 94 -52h2v251h102v-712h-102z" />
    <glyph glyph-name="e" unicode="e" horiz-adv-x="370" 
d="M337 215h-202v-69q0 -50 50 -50q45 0 50 51h102q0 -65 -42 -109t-110 -44q-93 0 -133 73q-19 35 -19 103v167q0 68 19 103q40 73 133 73q69 0 110.5 -45t41.5 -113v-140zM135 353v-58h100v58q0 58 -50 58t-50 -58z" />
    <glyph glyph-name="f" unicode="f" horiz-adv-x="222" 
d="M55 0v427h-50v80h50v69q0 69 41 105q35 31 90 31h47v-96h-46q-30 0 -30 -35v-74h76v-80h-76v-427h-102z" />
    <glyph glyph-name="g" unicode="g" 
d="M42 -59h102q1 -20 15 -35t39 -15q47 0 47 55v100h-2q-35 -52 -95 -52q-63 0 -89 48q-17 31 -17 109v193q0 97 16 123q29 46 91 46q34 0 57 -15q14 -9 39 -37v46h102v-569q0 -59 -36 -100q-42 -49 -117 -49q-55 0 -94 32q-49 40 -58 120zM144 342v-186q0 -60 50 -60
q22 0 36.5 15.5t14.5 39.5v197q0 28 -14 45.5t-37 17.5q-50 0 -50 -69z" />
    <glyph glyph-name="h" unicode="h" 
d="M42 0v712h102v-254h2q36 55 96 55q43 0 72 -28q33 -33 33 -96v-389h-102v351q0 60 -50 60q-51 0 -51 -70v-341h-102z" />
    <glyph glyph-name="i" unicode="i" horiz-adv-x="186" 
d="M42 0v507h102v-507h-102zM42 610v102h102v-102h-102z" />
    <glyph glyph-name="j" unicode="j" horiz-adv-x="186" 
d="M42 -16v523h102v-561q0 -73 -45.5 -112t-120.5 -39v96q37 0 50.5 19t13.5 74zM42 610v102h102v-102h-102z" />
    <glyph glyph-name="k" unicode="k" 
d="M42 0v712h102v-426h2l123 221h102l-121 -206l146 -301h-111l-92 219l-49 -77v-142h-102z" />
    <glyph glyph-name="l" unicode="l" horiz-adv-x="186" 
d="M36 136v576h102v-569q0 -28 10.5 -39t39.5 -14v-96q-77 0 -111 27q-41 32 -41 115z" />
    <glyph glyph-name="m" unicode="m" horiz-adv-x="592" 
d="M42 0v507h102v-49h2q36 55 96 55q54 0 91 -51q46 51 106 51q44 0 75 -28q36 -33 36 -96v-389h-102v351q0 60 -50 60q-51 0 -51 -70v-341h-102v351q0 60 -50 60q-51 0 -51 -70v-341h-102z" />
    <glyph glyph-name="n" unicode="n" 
d="M42 0v507h102v-49h2q36 55 96 55q43 0 72 -28q33 -33 33 -96v-389h-102v351q0 60 -50 60q-51 0 -51 -70v-341h-102z" />
    <glyph glyph-name="o" unicode="o" horiz-adv-x="370" 
d="M33 170v167q0 68 19 103q40 73 133 73t133 -73q19 -35 19 -103v-167q0 -68 -19 -103q-40 -73 -133 -73t-133 73q-19 35 -19 103zM135 353v-199q0 -58 50 -58t50 58v199q0 58 -50 58t-50 -58z" />
    <glyph glyph-name="p" unicode="p" 
d="M42 -205v712h102v-46q25 28 39 37q24 15 58 15q63 0 89 -48q17 -31 17 -109v-193q0 -97 -16 -123q-29 -46 -91 -46q-59 0 -94 52h-2v-251h-102zM245 156v186q0 69 -50 69q-23 0 -37 -17.5t-14 -45.5v-197q0 -24 14.5 -39.5t36.5 -15.5q50 0 50 60z" />
    <glyph glyph-name="q" unicode="q" 
d="M245 -205v251h-2q-35 -52 -94 -52q-62 0 -91 46q-16 26 -16 123v193q0 78 17 109q26 48 89 48q34 0 58 -15q14 -9 39 -37v46h102v-712h-102zM144 342v-186q0 -60 50 -60q22 0 36.5 15.5t14.5 39.5v197q0 28 -14 45.5t-37 17.5q-50 0 -50 -69z" />
    <glyph glyph-name="r" unicode="r" horiz-adv-x="278" 
d="M42 0v507h102v-54q68 60 135 60v-108q-15 6 -31 6q-39 0 -68 -24q-36 -30 -36 -86v-301h-102z" />
    <glyph glyph-name="s" unicode="s" horiz-adv-x="352" 
d="M323 365h-96q-2 52 -52 52q-23 0 -36.5 -15t-13.5 -36q0 -35 43 -52l60 -24q100 -40 100 -143q0 -64 -43.5 -108.5t-108.5 -44.5q-63 0 -104 39q-45 42 -48 114h96q8 -57 55 -57q23 0 40 15.5t17 39.5q0 43 -51 62l-49 18q-103 38 -103 140q0 64 44 106t106 42
t102.5 -42.5t41.5 -105.5z" />
    <glyph glyph-name="t" unicode="t" horiz-adv-x="204" 
d="M42 507v154h102v-154h63v-80h-63v-281q0 -33 15 -43q11 -7 48 -7v-96h-42q-63 0 -96 39q-27 33 -27 80v308h-51v80h51z" />
    <glyph glyph-name="u" unicode="u" 
d="M347 507v-507h-102v49h-2q-36 -55 -96 -55q-43 0 -72 28q-33 33 -33 96v389h102v-351q0 -60 50 -60q51 0 51 70v341h102z" />
    <glyph glyph-name="v" unicode="v" horiz-adv-x="352" 
d="M353 507l-132 -507h-90l-132 507h108l68 -324h2l68 324h108z" />
    <glyph glyph-name="w" unicode="w" horiz-adv-x="536" 
d="M535 507l-120 -507h-90l-56 301h-2l-56 -301h-90l-120 507h108l62 -315h2l57 315h80l54 -315h2l61 315h108z" />
    <glyph glyph-name="x" unicode="x" horiz-adv-x="332" 
d="M-11 0l125 259l-119 248h108l63 -144l63 144h108l-121 -248l127 -259h-108l-69 155l-69 -155h-108z" />
    <glyph glyph-name="y" unicode="y" horiz-adv-x="352" 
d="M-1 507h108l70 -316h2l69 316h105l-146 -595q-29 -117 -141 -117h-28v96h23q32 0 46 23t31 109z" />
    <glyph glyph-name="z" unicode="z" horiz-adv-x="315" 
d="M17 0v81l165 336h-152v90h268v-81l-165 -330h165v-96h-281z" />
    <glyph glyph-name="braceleft" unicode="{" horiz-adv-x="222" 
d="M3 277v60q28 0 46 31.5t18 80.5v152q0 51 28.5 81t69.5 30h54v-60h-18q-44 0 -44 -66v-151q0 -60 -24 -95q-19 -28 -45 -33v-2q26 -5 45 -32q24 -35 24 -97v-149q0 -67 44 -67h18v-60h-54q-41 0 -69.5 30t-28.5 81v151q0 50 -18 82.5t-46 32.5z" />
    <glyph glyph-name="bar" unicode="|" horiz-adv-x="222" 
d="M71 -250v1000h80v-1000h-80z" />
    <glyph glyph-name="braceright" unicode="}" horiz-adv-x="222" 
d="M219 337v-60q-28 0 -46 -32.5t-18 -82.5v-151q0 -51 -28.5 -81t-69.5 -30h-54v60h18q44 0 44 67v149q0 62 24 97q19 27 45 32v2q-26 5 -45 33q-24 35 -24 95v151q0 66 -44 66h-18v60h54q41 0 69.5 -30t28.5 -81v-152q0 -49 18 -80.5t46 -31.5z" />
    <glyph glyph-name="asciitilde" unicode="~" horiz-adv-x="186" 
d="M28 574l90 141h108l-132 -141h-66z" />
    <glyph glyph-name="Delta" unicode="&#x394;" horiz-adv-x="407" 
d="M2 0l159 712h85l159 -712h-403zM283 102l-79 405h-2l-78 -405h159z" />
    <glyph glyph-name="Delta" unicode="&#x2206;" horiz-adv-x="407" 
d="M2 0l159 712h85l159 -712h-403zM283 102l-79 405h-2l-78 -405h159z" />
    <glyph glyph-name="dagger" unicode="&#x2020;" horiz-adv-x="370" 
d="M364 396h-134v-601h-90v601h-134v90h134v226h90v-226h134v-90z" />
    <glyph glyph-name="degree" unicode="&#xb0;" horiz-adv-x="260" 
d="M69 606q0 -25 18 -43t43 -18q26 0 43.5 18t17.5 43q0 26 -17.5 43.5t-43.5 17.5q-25 0 -43 -17.5t-18 -43.5zM18 606q0 47 33 79.5t79 32.5q47 0 79.5 -32.5t32.5 -79.5q0 -46 -32.5 -79t-79.5 -33q-46 0 -79 33t-33 79z" />
    <glyph glyph-name="sterling" unicode="&#xa3;" horiz-adv-x="372" 
d="M13 298v71h55q-38 71 -38 152q0 86 38 138q43 59 124 59q57 0 99 -39q49 -45 49 -124v-45h-96v40q0 72 -55 72q-63 0 -63 -102q0 -67 32 -151h116v-71h-93q18 -50 18 -88q0 -53 -32 -109q81 -11 82 -11q40 0 66 32l68 -69q-43 -59 -111 -59q-18 0 -82.5 9.5t-87.5 9.5
q-44 0 -79 -16v86q28 17 64 20q27 40 27 87q0 49 -23 108h-78z" />
    <glyph glyph-name="section" unicode="&#xa7;" horiz-adv-x="370" 
d="M325 581v-46h-85v42q0 25 -13.5 43t-36.5 18q-52 0 -52 -73q0 -36 7.5 -49.5t39.5 -34.5l97 -63q40 -26 50 -70q5 -21 5 -89q0 -76 -13 -103q-16 -31 -74 -58q50 -26 65 -57q10 -23 10 -84q0 -78 -25 -114q-37 -54 -114 -54q-74 0 -112 50q-31 39 -31 93v42h85v-41
q0 -27 15.5 -45.5t39.5 -18.5q57 0 57 78q0 33 -4 45q-6 19 -28 33l-118 72q-37 23 -48 58q-9 28 -9 104q0 86 18 120t74 51q-47 23 -61 53q-11 24 -11 81q0 75 41 116q37 38 96 38q54 0 92 -34q43 -38 43 -103zM135 312v-99q0 -22 14.5 -37.5t35.5 -15.5q20 0 35 15.5
t15 37.5v99q0 22 -15 37.5t-35 15.5q-21 0 -35.5 -15.5t-14.5 -37.5z" />
    <glyph glyph-name="bullet" unicode="&#x2022;" horiz-adv-x="500" 
d="M72 356q0 74 52.5 126t125.5 52q74 0 126 -52t52 -126q0 -73 -52 -125.5t-126 -52.5q-73 0 -125.5 52.5t-52.5 125.5z" />
    <glyph glyph-name="paragraph" unicode="&#xb6;" horiz-adv-x="500" 
 />
    <glyph glyph-name="registered" unicode="&#xae;" horiz-adv-x="800" 
d="M329 507v-119h75q98 0 98 63q0 56 -77 56h-96zM263 145v422h160q145 0 145 -119q0 -105 -108 -118l121 -185h-80l-121 183h-51v-183h-66zM690 356q0 122 -85 209t-205 87t-205 -87t-85 -209t85 -209t205 -87t205 87t85 209zM38 356q0 150 106 256t256 106t256 -106
t106 -256t-106 -256t-256 -106t-256 106t-106 256z" />
    <glyph glyph-name="copyright" unicode="&#xa9;" horiz-adv-x="800" 
d="M524 287h66q-13 -70 -62 -113t-115 -43q-96 0 -155 64.5t-59 160.5q0 100 57 163t154 63q70 0 120.5 -40t59.5 -111h-66q-8 36 -39.5 60.5t-73.5 24.5q-65 0 -102.5 -45t-37.5 -113q0 -65 40 -113t102 -48q42 0 73 26t38 64zM690 356q0 122 -85 209t-205 87t-205 -87
t-85 -209t85 -209t205 -87t205 87t85 209zM38 356q0 150 106 256t256 106t256 -106t106 -256t-106 -256t-256 -106t-256 106t-106 256z" />
    <glyph glyph-name="trademark" unicode="&#x2122;" horiz-adv-x="990" 
d="M166 300v346h-127v66h326v-66h-127v-346h-72zM805 300v346h-2l-137 -346h-41l-136 346h-2v-346h-72v412h114l117 -301l117 301h114v-412h-72z" />
    <glyph glyph-name="dieresis" unicode="&#xa8;" horiz-adv-x="242" 
d="M93 287v353l-66 -43v72l66 43h80v-425h-80z" />
    <glyph glyph-name="plusminus" unicode="&#xb1;" horiz-adv-x="600" 
d="M260 104v161h-213v80h213v161h80v-161h213v-80h-213v-161h-80zM47 0v80h506v-80h-506z" />
    <glyph glyph-name="yen" unicode="&#xa5;" horiz-adv-x="372" 
d="M138 0v172h-114v66h114v49h-114v66h98l-118 359h102l79 -283h2l79 283h102l-118 -359h98v-66h-114v-49h114v-66h-114v-172h-96z" />
    <glyph glyph-name="mu" unicode="&#xb5;" 
d="M347 0h-102v50h-1q-5 -21 -19 -37q-18 -20 -42 -20q-29 0 -39 31v-229h-102v712h102v-341q0 -70 50 -70q51 0 51 70v341h102v-507z" />
    <glyph glyph-name="mu" unicode="&#x3bc;" 
d="M347 0h-102v50h-1q-5 -21 -19 -37q-18 -20 -42 -20q-29 0 -39 31v-229h-102v712h102v-341q0 -70 50 -70q51 0 51 70v341h102v-507z" />
    <glyph glyph-name="logicalnot" unicode="&#xac;" horiz-adv-x="458" 
d="M354 337l-20 -66h-140v-102q0 -73 62 -73q64 0 64 72v35h102v-44q0 -67 -47.5 -116t-114.5 -49q-69 0 -113 35q-55 44 -55 133v109h-93l20 66h73v49h-93l20 66h73v102q0 71 46.5 117.5t119.5 46.5q67 0 113 -44t50 -113l-15 -53h-86v34q0 31 -17.5 52.5t-45.5 21.5
q-63 0 -63 -83v-81h195l-20 -66h-175v-49h160z" />
    <glyph glyph-name="guillemotleft" unicode="&#xab;" horiz-adv-x="426" 
d="M398 479v-102l-101 -100l101 -100v-102l-203 202zM213 479v-102l-101 -100l101 -100v-102l-203 202z" />
    <glyph glyph-name="guillemotright" unicode="&#xbb;" horiz-adv-x="426" 
d="M213 75v102l101 100l-101 100v102l203 -202zM28 75v102l101 100l-101 100v102l203 -202z" />
    <glyph glyph-name="ellipsis" unicode="&#x2026;" horiz-adv-x="1000" 
d="M116 0v102h102v-102h-102zM449 0v102h102v-102h-102zM782 0v102h102v-102h-102z" />
    <glyph glyph-name="nonbreakingspace" unicode="&#xa0;" horiz-adv-x="186" 
 />
    <glyph glyph-name="endash" unicode="&#x2013;" horiz-adv-x="454" 
d="M420 436l-51 -84l46 -97l-49 -24l-59 90h-162l-60 -91l-45 26l43 96l-49 84l39 40l72 -93h163l76 93z" />
    <glyph glyph-name="emdash" unicode="&#x2014;" horiz-adv-x="1000" 
d="M0 229v96h1000v-96h-1000z" />
    <glyph glyph-name="quotedblleft" unicode="&#x201c;" horiz-adv-x="278" 
d="M260 712v-176h-102v102zM120 712v-176h-102v102z" />
    <glyph glyph-name="quotedblright" unicode="&#x201d;" horiz-adv-x="278" 
d="M18 536v176h102v-102zM158 536v176h102v-102z" />
    <glyph glyph-name="quoteleft" unicode="&#x2018;" horiz-adv-x="186" 
d="M144 712v-176h-102v102z" />
    <glyph glyph-name="quoteright" unicode="&#x2019;" horiz-adv-x="186" 
d="M42 536v176h102v-102z" />
    <glyph glyph-name="currency" unicode="&#xa4;" horiz-adv-x="596" 
d="M218 0v712h102v-305h126v305h102v-712h-102v317h-126v-317h-102zM-1 571l60 141h98l-102 -141h-56z" />
    <glyph glyph-name="guilsinglleft" unicode="&#x2039;" horiz-adv-x="388" 
d="M346 170q0 -68 -19 -103q-40 -73 -133 -73t-133 73q-19 35 -19 103v337h102v-353q0 -58 50 -58t50 58v353h102v-337zM130 574l90 141h108l-132 -141h-66z" />
    <glyph glyph-name="guilsinglright" unicode="&#x203a;" horiz-adv-x="598" 
d="M353 0v301l-140 411h108l82 -283h2l82 283h108l-140 -411v-301h-102zM-1 571l60 141h98l-102 -141h-56z" />
    <glyph glyph-name="periodcentered" unicode="&#xb7;" horiz-adv-x="186" 
d="M29 443q0 26 19 45t45 19t45 -19t19 -45t-19 -45t-45 -19t-45 19t-19 45z" />
    <glyph glyph-name="periodcentered" unicode="&#x2219;" horiz-adv-x="186" 
d="M29 443q0 26 19 45t45 19t45 -19t19 -45t-19 -45t-45 -19t-45 19t-19 45z" />
    <glyph glyph-name="quotesinglbase" unicode="&#x201a;" horiz-adv-x="186" 
d="M42 -74v176h102v-102z" />
    <glyph glyph-name="quotedblbase" unicode="&#x201e;" horiz-adv-x="329" 
d="M42 -74v176h102v-102zM187 -74v176h102v-102z" />
    <glyph glyph-name="perthousand" unicode="&#x2030;" horiz-adv-x="537" 
d="M418 131v-51q0 -26 25 -26t25 26v51q0 26 -25 26t-25 -26zM358 70v65q0 38 23 60t62 22t62 -22t23 -60v-65q0 -34 -23 -55t-62 -21t-62 21t-23 55zM69 632v-51q0 -26 25 -26t25 26v51q0 26 -25 26t-25 -26zM9 571v65q0 38 23 60t62 22t62 -22t23 -60v-65q0 -34 -23 -55
t-62 -21t-62 21t-23 55zM225 131v-51q0 -26 25 -26t25 26v51q0 26 -25 26t-25 -26zM165 70v65q0 38 23 60t62 22t62 -22t23 -60v-65q0 -34 -23 -55t-62 -21t-62 21t-23 55zM20 0l244 712h66l-244 -712h-66z" />
    <glyph glyph-name="Omega" unicode="&#x3a9;" horiz-adv-x="427" 
d="M385 0h-145v169q42 9 42 56q0 7 1 29v37v253q0 35 -19.5 53.5t-49.5 18.5t-48 -18q-21 -19 -21 -54v-253q0 -15 1 -37v-29q0 -47 42 -56v-169h-146v102h89q-68 33 -84 112q-4 20 -4 84v246q0 82 54 131q49 43 117 43t117 -43q54 -49 54 -131v-246q0 -64 -4 -84
q-16 -79 -84 -112h88v-102z" />
    <glyph glyph-name="Omega" unicode="&#x2126;" horiz-adv-x="427" 
d="M385 0h-145v169q42 9 42 56q0 7 1 29v37v253q0 35 -19.5 53.5t-49.5 18.5t-48 -18q-21 -19 -21 -54v-253q0 -15 1 -37v-29q0 -47 42 -56v-169h-146v102h89q-68 33 -84 112q-4 20 -4 84v246q0 82 54 131q49 43 117 43t117 -43q54 -49 54 -131v-246q0 -64 -4 -84
q-16 -79 -84 -112h88v-102z" />
    <glyph glyph-name="pi" unicode="&#x3c0;" 
d="M347 0h-102v417h-101v-417h-102v507h305v-507z" />
    <glyph glyph-name="Epsilon" unicode="&#x395;" horiz-adv-x="370" 
d="M48 0v712h304v-96h-202v-209h176v-96h-176v-209h202v-102h-304z" />
    <glyph glyph-name="Eta" unicode="&#x397;" horiz-adv-x="426" 
d="M48 0v712h102v-305h126v305h102v-712h-102v317h-126v-317h-102z" />
    <glyph glyph-name="Iota" unicode="&#x399;" horiz-adv-x="204" 
d="M51 0v712h102v-712h-102z" />
    <glyph glyph-name="Rho" unicode="&#x3a1;" horiz-adv-x="407" 
d="M48 0v712h153q85 0 131.5 -49.5t46.5 -167.5q0 -96 -29 -143q-45 -74 -148 -74h-52v-278h-102zM150 616v-242h49q56 0 73 33q11 22 11 87q0 64 -10 86q-16 36 -70 36h-53z" />
    <glyph glyph-name="Phi" unicode="&#x3a6;" horiz-adv-x="510" 
d="M468 244q0 -68 -51 -112q-47 -41 -111 -41v-91h-102v91q-64 0 -111 41q-51 44 -51 112v255q0 68 51 112q47 41 111 41v60h102v-60q64 0 111 -41q51 -44 51 -112v-255zM367 244v255q0 21 -18.5 36t-41.5 15v-357q23 0 41.5 15t18.5 36zM203 193v357q-23 0 -41.5 -15
t-18.5 -36v-255q0 -21 18.5 -36t41.5 -15z" />
    <glyph glyph-name="alphatonos" unicode="&#x3ac;" 
d="M144 351v-186q0 -69 50 -69q23 0 37 17.5t14 45.5v197q0 24 -14.5 39.5t-36.5 15.5q-50 0 -50 -60zM245 0v46q-25 -28 -39 -37q-24 -15 -58 -15q-63 0 -89 48q-17 31 -17 109v193q0 97 16 123q29 46 91 46q59 0 94 -52h2v46h102v-507h-102zM150 574l90 141h108l-132 -141
h-66z" />
    <glyph glyph-name="alpha" unicode="&#x3b1;" 
d="M144 351v-186q0 -69 50 -69q23 0 37 17.5t14 45.5v197q0 24 -14.5 39.5t-36.5 15.5q-50 0 -50 -60zM245 0v46q-25 -28 -39 -37q-24 -15 -58 -15q-63 0 -89 48q-17 31 -17 109v193q0 97 16 123q29 46 91 46q59 0 94 -52h2v46h102v-507h-102z" />
    <glyph glyph-name="upsilondieresistonos" unicode="&#x3b0;" horiz-adv-x="388" 
d="M346 170q0 -68 -19 -103q-40 -73 -133 -73t-133 73q-19 35 -19 103v337h102v-353q0 -58 50 -58t50 58v353h102v-337zM42 586v102h91v-102h-91zM255 586v102h91v-102h-91zM153 586l17 150h83l-50 -150h-50z" />
    <glyph glyph-name="beta" unicode="&#x3b2;" 
d="M144 -205h-102v751q0 70 37 116q40 50 114 50q154 0 154 -182q0 -50 -9 -72q-11 -28 -50 -52q59 -33 59 -102v-141q0 -97 -16 -123q-29 -46 -91 -46q-59 0 -94 52h-2v-251zM144 151q0 -24 14.5 -39.5t36.5 -15.5q50 0 50 60v169q0 33 -44 33v90q24 0 34 7.5t10 31.5v80
q0 49 -48 49q-29 0 -41 -19.5t-12 -68.5v-377z" />
    <glyph glyph-name="delta" unicode="&#x3b4;" horiz-adv-x="370" 
d="M337 170q0 -68 -19 -103q-40 -73 -133 -73t-133 73q-19 35 -19 103v147q0 164 123 162l-110 161v72h267v-90h-137l98 -143q38 -56 47 -77q16 -35 16 -85v-147zM235 154v179q0 58 -50 58t-50 -58v-179q0 -58 50 -58t50 58z" />
    <glyph glyph-name="gamma" unicode="&#x3b3;" horiz-adv-x="351" 
d="M224 4v-209h-98v209l-127 503h107l70 -335l69 335h107z" />
    <glyph glyph-name="epsilon" unicode="&#x3b5;" horiz-adv-x="367" 
d="M185 513q69 0 110.5 -45t41.5 -117h-102q0 60 -50 60q-39 0 -39 -58q0 -50 50 -50h43v-84h-49q-56 0 -56 -60q0 -63 51 -63q45 0 50 51h102q0 -65 -42 -109t-110 -44q-62 0 -103 34q-49 40 -49 115q0 40 19 74q23 39 64 49q-29 4 -49 29q-23 28 -23 73q0 63 39 104
t102 41z" />
    <glyph glyph-name="eta" unicode="&#x3b7;" 
d="M42 0v507h102v-49h2q36 55 96 55q43 0 72 -28q33 -33 33 -96v-389h-102v351q0 60 -50 60q-51 0 -51 -70v-341h-102z" />
    <glyph glyph-name="iota" unicode="&#x3b9;" horiz-adv-x="214" 
d="M144 507v-361q0 -30 12 -40q9 -9 38 -10v-96h-29q-63 0 -96 39q-27 33 -27 80v388h102z" />
    <glyph glyph-name="theta" unicode="&#x3b8;" horiz-adv-x="388" 
d="M346 147q0 -69 -44.5 -111t-107.5 -42t-106 41q-46 43 -46 112v412q0 69 46 112q43 41 106 41t107.5 -42t44.5 -111v-412zM244 421v144q0 22 -14 36.5t-36 14.5t-36 -14.5t-14 -36.5v-144h100zM144 334v-188q0 -22 14 -36.5t36 -14.5t36 14.5t14 36.5v188h-100z" />
    <glyph glyph-name="kappa" unicode="&#x3ba;" 
d="M42 0v507h102v-221h2l123 221h102l-121 -206l146 -301h-111l-92 219l-49 -77v-142h-102z" />
    <glyph glyph-name="lambda" unicode="&#x3bb;" horiz-adv-x="352" 
d="M353 0h-105l-69 316h-2l-70 -316h-108l139 484q-17 86 -31 109t-46 23h-23v96h28q112 0 141 -117z" />
    <glyph glyph-name="nu" unicode="&#x3bd;" horiz-adv-x="352" 
d="M353 507l-132 -507h-90l-132 507h108l68 -324h2l68 324h108z" />
    <glyph glyph-name="glyph150" 
d="M347 0h-102v50h-1q-5 -21 -19 -37q-18 -20 -42 -20q-29 0 -39 31v-229h-102v712h102v-341q0 -70 50 -70q51 0 51 70v341h102v-507z" />
    <glyph glyph-name="xi" unicode="&#x3be;" horiz-adv-x="324" 
d="M33 204q0 173 115 197q-71 26 -71 116q0 36 18 66t51 39h-90v90h275v-90h-61q-92 0 -92 -90t62 -90h44v-90h-63q-86 0 -86 -135q0 -69 11 -92q14 -29 58 -29q65 0 85 -20q24 -23 24 -98v-152h-99v61q0 85 -1 91q-4 23 -30 23q-150 0 -150 203z" />
    <glyph glyph-name="omicron" unicode="&#x3bf;" horiz-adv-x="370" 
d="M33 170v167q0 68 19 103q40 73 133 73t133 -73q19 -35 19 -103v-167q0 -68 -19 -103q-40 -73 -133 -73t-133 73q-19 35 -19 103zM135 353v-199q0 -58 50 -58t50 58v199q0 58 -50 58t-50 -58z" />
    <glyph glyph-name="rho" unicode="&#x3c1;" 
d="M245 156v186q0 69 -50 69q-23 0 -37 -17.5t-14 -45.5v-197q0 -24 14.5 -39.5t36.5 -15.5q50 0 50 60zM347 356v-193q0 -97 -16 -123q-29 -46 -91 -46q-59 0 -94 52h-2v-251h-102v542q0 68 19 103q40 73 134 73q74 0 107 -26q45 -35 45 -131z" />
    <glyph glyph-name="sigma" unicode="&#x3c3;" horiz-adv-x="398" 
d="M235 154v193q0 58 -50 58t-50 -58v-193q0 -58 50 -58t50 58zM378 507v-89h-73q20 -12 27 -37q5 -20 5 -70v-141q0 -68 -19 -103q-40 -73 -133 -73t-133 73q-19 35 -19 103v161q0 68 19 103q40 73 133 73h193z" />
    <glyph glyph-name="sigma1" unicode="&#x3c2;" horiz-adv-x="374" 
d="M200 0q-97 0 -133 67q-19 35 -19 103v167q0 68 19 103q40 73 133 73q69 0 110.5 -45t41.5 -117h-102q0 60 -50 60t-50 -58v-207q0 -51 70 -51t92 -33q16 -25 16 -98v-138h-99v131q0 25 -2 30q-5 13 -27 13z" />
    <glyph glyph-name="tau" unicode="&#x3c4;" horiz-adv-x="260" 
d="M254 507v-90h-70v-271q0 -33 15 -43q11 -7 48 -7v-96h-42q-63 0 -96 39q-27 33 -27 80v298h-77v90h249z" />
    <glyph glyph-name="phi" unicode="&#x3c6;" horiz-adv-x="521" 
d="M488 163q0 -88 -51 -132q-47 -40 -126 -37v-199h-102v199q-176 -4 -176 169v170q0 79 27 120q34 52 115 60l8 -102q-36 -5 -44 -34q-4 -14 -4 -84v-130q0 -72 75 -67v255q0 162 142 162q60 0 98 -46.5t38 -115.5v-188zM386 173v182q0 56 -39 56q-36 0 -36 -56v-259
q41 -4 58 14t17 63z" />
    <glyph glyph-name="upsilon" unicode="&#x3c5;" horiz-adv-x="388" 
d="M346 170q0 -68 -19 -103q-40 -73 -133 -73t-133 73q-19 35 -19 103v337h102v-353q0 -58 50 -58t50 58v353h102v-337z" />
    <glyph glyph-name="iotadieresis" unicode="&#x3ca;" horiz-adv-x="214" 
d="M144 507v-361q0 -30 12 -40q9 -9 38 -10v-96h-29q-63 0 -96 39q-27 33 -27 80v388h102zM-25 586v102h90v-102h-90zM137 586v102h90v-102h-90z" />
    <glyph glyph-name="omega" unicode="&#x3c9;" horiz-adv-x="520" 
d="M487 177q0 -184 -136 -184q-75 0 -91 61q-16 -61 -91 -61q-136 0 -136 184v163q0 167 164 174v-103q-38 0 -51 -29q-10 -22 -10 -72v-163q0 -23 10 -36.5t23 -13.5q40 0 40 50v182h102v-182q0 -50 40 -50q13 0 23 13.5t10 36.5v163q0 50 -9 72q-14 29 -52 29v103
q164 -7 164 -174v-163z" />
    <glyph glyph-name="upsilondieresis" unicode="&#x3cb;" horiz-adv-x="388" 
d="M346 170q0 -68 -19 -103q-40 -73 -133 -73t-133 73q-19 35 -19 103v337h102v-353q0 -58 50 -58t50 58v353h102v-337zM66 586v102h90v-102h-90zM228 586v102h90v-102h-90z" />
    <glyph glyph-name="omicrontonos" unicode="&#x3cc;" horiz-adv-x="370" 
d="M150 574l90 141h108l-132 -141h-66zM33 170v167q0 68 19 103q40 73 133 73t133 -73q19 -35 19 -103v-167q0 -68 -19 -103q-40 -73 -133 -73t-133 73q-19 35 -19 103zM135 353v-199q0 -58 50 -58t50 58v199q0 58 -50 58t-50 -58z" />
    <glyph glyph-name="Alphatonos" unicode="&#x386;" horiz-adv-x="477" 
d="M324 249l-50 258h-2l-50 -258h102zM72 0l159 712h85l159 -712h-102l-30 153h-139l-30 -153h-102zM-1 571l60 141h98l-102 -141h-56z" />
    <glyph glyph-name="iotatonos" unicode="&#x3af;" horiz-adv-x="214" 
d="M144 507v-361q0 -30 12 -40q9 -9 38 -10v-96h-29q-63 0 -96 39q-27 33 -27 80v388h102zM50 574l90 141h108l-132 -141h-66z" />
    <glyph glyph-name="tonos" unicode="&#x384;" horiz-adv-x="186" 
d="M28 574l90 141h108l-132 -141h-66z" />
    <glyph glyph-name="Zeta" unicode="&#x396;" horiz-adv-x="333" 
d="M15 0v90l192 526h-182v96h293v-81l-196 -535h196v-96h-303z" />
    <glyph glyph-name="Psi" unicode="&#x3a8;" horiz-adv-x="548" 
d="M500 300q0 -69 -53 -117.5t-122 -48.5v-134h-102v134q-69 0 -122 48.5t-53 117.5v412h102v-402q0 -35 23 -56q20 -18 50 -18v476h102v-476q30 0 51.5 19.5t21.5 54.5v402h102v-412z" />
    <glyph glyph-name="glyph168" horiz-adv-x="566" 
d="M182 168v376q0 82 54 131q49 43 117 43t117 -43q54 -49 54 -131v-376q0 -82 -54 -130q-49 -44 -117 -44t-117 44q-54 48 -54 130zM284 544v-376q0 -35 21 -54q18 -18 48 -18t49.5 18.5t19.5 53.5v376q0 35 -19.5 53.5t-49.5 18.5t-48 -18q-21 -19 -21 -54zM-1 571l60 141
h98l-102 -141h-56z" />
    <glyph glyph-name="Iotatonos" unicode="&#x38a;" horiz-adv-x="374" 
d="M221 0v712h102v-712h-102zM-1 571l60 141h98l-102 -141h-56z" />
    <glyph glyph-name="zeta" unicode="&#x3b6;" horiz-adv-x="328" 
d="M213 95q66 0 87.5 -23.5t21.5 -103.5v-142h-99v91q0 58 -4 69q-6 15 -34 15q-49 0 -89 28q-48 33 -58 94q-5 28 -5 59q0 130 73 274q55 109 110 166h-156v90h275v-72q-79 -71 -140 -205q-64 -139 -64 -253q0 -87 82 -87z" />
    <glyph glyph-name="psi" unicode="&#x3c8;" horiz-adv-x="538" 
d="M496 161q0 -75 -42 -119q-46 -48 -134 -48v-199h-102v199q-88 0 -134 48q-42 44 -42 119v346h103v-352q0 -61 73 -59v616h102v-616q73 -2 73 59v352h103v-346z" />
    <glyph glyph-name="Omegatonos" unicode="&#x38f;" horiz-adv-x="566" 
d="M-1 571l60 141h98l-102 -141h-56zM524 0h-145v169q42 9 42 56q0 7 1 29v37v253q0 35 -19.5 53.5t-49.5 18.5t-48 -18q-21 -19 -21 -54v-253q0 -15 1 -37v-29q0 -47 42 -56v-169h-146v102h89q-68 33 -84 112q-4 20 -4 84v246q0 82 54 131q49 43 117 43t117 -43
q54 -49 54 -131v-246q0 -64 -4 -84q-16 -79 -84 -112h88v-102z" />
    <glyph glyph-name="dieresistonos" unicode="&#x385;" 
d="M42 0v507h102v-49h2q36 55 96 55q43 0 72 -28q33 -33 33 -96v-389h-102v351q0 60 -50 60q-51 0 -51 -70v-341h-102zM150 574l90 141h108l-132 -141h-66z" />
    <glyph glyph-name="iotadieresistonos" unicode="&#x390;" horiz-adv-x="214" 
d="M144 507v-361q0 -30 12 -40q9 -9 38 -10v-96h-29q-63 0 -96 39q-27 33 -27 80v388h102zM-54 586v102h91v-102h-91zM159 586v102h91v-102h-91zM57 586l17 150h83l-50 -150h-50z" />
    <glyph glyph-name="Gamma" unicode="&#x393;" horiz-adv-x="345" 
d="M48 0v712h304v-96h-202v-616h-102z" />
    <glyph glyph-name="Upsilon" unicode="&#x3a5;" horiz-adv-x="388" 
d="M143 0v301l-140 411h108l82 -283h2l82 283h108l-140 -411v-301h-102z" />
    <glyph glyph-name="glyph177" horiz-adv-x="426" 
d="M48 0v712h330v-712h-102v622h-126v-622h-102z" />
    <glyph glyph-name="glyph178" 
d="M347 0h-102v417h-101v-417h-102v507h305v-507z" />
    <glyph glyph-name="chi" unicode="&#x3c7;" horiz-adv-x="332" 
d="M-11 0l125 259l-119 248h108l63 -144l63 144h108l-121 -248l127 -259h-108l-69 155l-69 -155h-108z" />
    <glyph glyph-name="glyph180" horiz-adv-x="367" 
d="M185 513q69 0 110.5 -45t41.5 -117h-102q0 60 -50 60q-39 0 -39 -58q0 -50 50 -50h43v-84h-49q-56 0 -56 -60q0 -63 51 -63q45 0 50 51h102q0 -65 -42 -109t-110 -44q-62 0 -103 34q-49 40 -49 115q0 40 19 74q23 39 64 49q-29 4 -49 29q-23 28 -23 73q0 63 39 104
t102 41zM130 574l90 141h108l-132 -141h-66z" />
    <glyph glyph-name="glyph181" horiz-adv-x="540" 
d="M218 0v712h304v-96h-202v-209h176v-96h-176v-209h202v-102h-304zM-1 571l60 141h98l-102 -141h-56z" />
    <glyph glyph-name="Beta" unicode="&#x392;" horiz-adv-x="426" 
d="M48 0v712h149q93 0 140 -55q41 -48 41 -125v-26q0 -53 -18 -84q-15 -25 -52 -48q70 -34 70 -140v-40q0 -194 -191 -194h-139zM150 330v-228h44q56 0 75 34q13 24 13 86q0 58 -16 81q-19 27 -71 27h-45zM150 616v-196h46q49 0 69 26q17 22 17 74q0 96 -90 96h-42z" />
    <glyph glyph-name="Kappa" unicode="&#x39a;" horiz-adv-x="426" 
d="M48 0v712h102v-325h2l149 325h102l-139 -285l165 -427h-108l-116 316l-55 -103v-213h-102z" />
    <glyph glyph-name="Alpha" unicode="&#x391;" horiz-adv-x="407" 
d="M254 249l-50 258h-2l-50 -258h102zM2 0l159 712h85l159 -712h-102l-30 153h-139l-30 -153h-102z" />
    <glyph glyph-name="Lambda" unicode="&#x39b;" horiz-adv-x="407" 
d="M204 507h-2l-98 -507h-102l159 712h85l159 -712h-102z" />
    <glyph glyph-name="Theta" unicode="&#x398;" horiz-adv-x="426" 
d="M384 168q0 -82 -54 -130q-49 -44 -117 -44t-117 44q-54 48 -54 130v376q0 82 54 131q49 43 117 43t117 -43q54 -49 54 -131v-376zM282 168v376q0 35 -19.5 53.5t-49.5 18.5t-48 -18q-21 -19 -21 -54v-376q0 -35 21 -54q18 -18 48 -18t49.5 18.5t19.5 53.5zM257 311h-88
v96h88v-96z" />
    <glyph glyph-name="Nu" unicode="&#x39d;" horiz-adv-x="444" 
d="M44 0v712h98l154 -429h2v429h102v-712h-96l-156 428h-2v-428h-102z" />
    <glyph glyph-name="Xi" unicode="&#x39e;" horiz-adv-x="414" 
d="M65 311v96h284v-96h-284zM39 0v102h336v-102h-336zM375 616v96h-336v-96h336z" />
    <glyph glyph-name="Omicron" unicode="&#x39f;" horiz-adv-x="426" 
d="M42 168v376q0 82 54 131q49 43 117 43t117 -43q54 -49 54 -131v-376q0 -82 -54 -130q-49 -44 -117 -44t-117 44q-54 48 -54 130zM144 544v-376q0 -35 21 -54q18 -18 48 -18t49.5 18.5t19.5 53.5v376q0 35 -19.5 53.5t-49.5 18.5t-48 -18q-21 -19 -21 -54z" />
    <glyph glyph-name="Mu" unicode="&#x39c;" horiz-adv-x="556" 
d="M48 0v712h98l131 -377h2l130 377h99v-712h-102v433h-2l-101 -306h-51l-100 306h-2v-433h-102z" />
    <glyph glyph-name="Sigma" unicode="&#x3a3;" horiz-adv-x="374" 
d="M354 0h-334v86l115 270l-115 270v86h334v-96h-228l117 -260l-114 -254h225v-102z" />
    <glyph glyph-name="Tau" unicode="&#x3a4;" horiz-adv-x="332" 
d="M115 0v616h-118v96h338v-96h-118v-616h-102z" />
    <glyph glyph-name="glyph193" horiz-adv-x="520" 
d="M487 177q0 -184 -136 -184q-75 0 -91 61q-16 -61 -91 -61q-136 0 -136 184v163q0 167 164 174v-103q-38 0 -51 -29q-10 -22 -10 -72v-163q0 -23 10 -36.5t23 -13.5q40 0 40 50v182h102v-182q0 -50 40 -50q13 0 23 13.5t10 36.5v163q0 50 -9 72q-14 29 -52 29v103
q164 -7 164 -174v-163zM220 574l90 141h108l-132 -141h-66z" />
    <glyph glyph-name="Iotadieresis" unicode="&#x3aa;" horiz-adv-x="204" 
d="M51 0v712h102v-712h-102zM-24 756v102h90v-102h-90zM138 756v102h90v-102h-90z" />
    <glyph glyph-name="Upsilondieresis" unicode="&#x3ab;" horiz-adv-x="388" 
d="M143 0v301l-140 411h108l82 -283h2l82 283h108l-140 -411v-301h-102zM68 756v102h90v-102h-90zM230 756v102h90v-102h-90z" />
    <glyph glyph-name="glyph196" horiz-adv-x="186" 
d="M29 443q0 26 19 45t45 19t45 -19t19 -45t-19 -45t-45 -19t-45 19t-19 45z" />
    <glyph glyph-name="glyph197" horiz-adv-x="600" 
d="M495 330l36 -65q-46 -87 -125 -87q-38 0 -111 33q-79 36 -102 36q-40 0 -88 -71l-36 64q46 87 125 87q38 0 111 -33q79 -36 102 -36q41 0 88 72z" />
    <glyph glyph-name="Epsilontonos" unicode="&#x388;" horiz-adv-x="540" 
d="M218 0v712h304v-96h-202v-209h176v-96h-176v-209h202v-102h-304zM-1 571l60 141h98l-102 -141h-56z" />
    <glyph glyph-name="glyph199" 
d="M-2 0l144 373l-133 339h108l77 -211l78 211h108l-136 -339l147 -373h-108l-89 240l-88 -240h-108z" />
    <glyph glyph-name="glyph200" horiz-adv-x="332" 
d="M-11 0l125 259l-119 248h108l63 -144l63 144h108l-121 -248l127 -259h-108l-69 155l-69 -155h-108z" />
    <glyph glyph-name="brokenbar" unicode="&#xa6;" horiz-adv-x="222" 
d="M71 -175v350h80v-350h-80zM71 325v350h80v-350h-80z" />
    <glyph glyph-name="Pi" unicode="&#x3a0;" horiz-adv-x="426" 
d="M48 0v712h330v-712h-102v622h-126v-622h-102z" />
    <glyph glyph-name="epsilontonos" unicode="&#x3ad;" horiz-adv-x="367" 
d="M185 513q69 0 110.5 -45t41.5 -117h-102q0 60 -50 60q-39 0 -39 -58q0 -50 50 -50h43v-84h-49q-56 0 -56 -60q0 -63 51 -63q45 0 50 51h102q0 -65 -42 -109t-110 -44q-62 0 -103 34q-49 40 -49 115q0 40 19 74q23 39 64 49q-29 4 -49 29q-23 28 -23 73q0 63 39 104
t102 41zM130 574l90 141h108l-132 -141h-66z" />
    <glyph glyph-name="upsilontonos" unicode="&#x3cd;" horiz-adv-x="388" 
d="M346 170q0 -68 -19 -103q-40 -73 -133 -73t-133 73q-19 35 -19 103v337h102v-353q0 -58 50 -58t50 58v353h102v-337zM130 574l90 141h108l-132 -141h-66z" />
    <glyph glyph-name="etatonos" unicode="&#x3ae;" 
d="M42 0v507h102v-49h2q36 55 96 55q43 0 72 -28q33 -33 33 -96v-389h-102v351q0 60 -50 60q-51 0 -51 -70v-341h-102zM150 574l90 141h108l-132 -141h-66z" />
    <glyph glyph-name="omegatonos" unicode="&#x3ce;" horiz-adv-x="520" 
d="M487 177q0 -184 -136 -184q-75 0 -91 61q-16 -61 -91 -61q-136 0 -136 184v163q0 167 164 174v-103q-38 0 -51 -29q-10 -22 -10 -72v-163q0 -23 10 -36.5t23 -13.5q40 0 40 50v182h102v-182q0 -50 40 -50q13 0 23 13.5t10 36.5v163q0 50 -9 72q-14 29 -52 29v103
q164 -7 164 -174v-163zM220 574l90 141h108l-132 -141h-66z" />
    <glyph glyph-name="Chi" unicode="&#x3a7;" 
d="M-2 0l144 373l-133 339h108l77 -211l78 211h108l-136 -339l147 -373h-108l-89 240l-88 -240h-108z" />
    <glyph glyph-name="Etatonos" unicode="&#x389;" horiz-adv-x="596" 
d="M218 0v712h102v-305h126v305h102v-712h-102v317h-126v-317h-102zM-1 571l60 141h98l-102 -141h-56z" />
    <glyph glyph-name="twosuperior" unicode="&#xb2;" horiz-adv-x="242" 
d="M11 584v36q0 42 31.5 70t78.5 28q46 0 78 -26t32 -65v-33q0 -36 -23 -75l-95 -160h118v-72h-220v54l128 212q12 20 12 39v23q0 31 -31 31q-29 0 -29 -31v-31h-80z" />
    <glyph glyph-name="threesuperior" unicode="&#xb3;" horiz-adv-x="242" 
d="M100 474v66q27 0 36 4q15 7 15 30v42q0 30 -30 30t-30 -30v-26h-80v32q0 42 31.5 69t80.5 27q52 0 82 -32q26 -28 26 -68v-41q0 -47 -41 -69q41 -24 41 -73v-51q0 -41 -26 -69q-30 -32 -84 -32q-46 0 -75 21q-35 24 -35 73v34h80v-23q0 -33 30 -33q12 0 21 9t9 21v52
q0 23 -11 30t-40 7z" />
    <glyph glyph-name="onehalf" unicode="&#xbd;" horiz-adv-x="555" 
d="M18 -17l437 746h60l-437 -746h-60zM77 287v353l-66 -43v72l66 43h80v-425h-80zM322 0v54l130 212q12 20 12 39v23q0 31 -31 31t-31 -31v-31h-80v36q0 42 32 70t80 28q46 0 78 -26t32 -65v-33q0 -36 -23 -75l-95 -160h118v-72h-222z" />
    <glyph glyph-name="Omicrontonos" unicode="&#x38c;" horiz-adv-x="566" 
d="M182 168v376q0 82 54 131q49 43 117 43t117 -43q54 -49 54 -131v-376q0 -82 -54 -130q-49 -44 -117 -44t-117 44q-54 48 -54 130zM284 544v-376q0 -35 21 -54q18 -18 48 -18t49.5 18.5t19.5 53.5v376q0 35 -19.5 53.5t-49.5 18.5t-48 -18q-21 -19 -21 -54zM-1 571l60 141
h98l-102 -141h-56z" />
    <glyph glyph-name="Upsilontonos" unicode="&#x38e;" horiz-adv-x="598" 
d="M353 0v301l-140 411h108l82 -283h2l82 283h108l-140 -411v-301h-102zM-1 571l60 141h98l-102 -141h-56z" />
    <glyph glyph-name="glyph214" horiz-adv-x="458" 
d="M354 337l-20 -66h-140v-102q0 -73 62 -73q64 0 64 72v35h102v-44q0 -67 -47.5 -116t-114.5 -49q-69 0 -113 35q-55 44 -55 133v109h-93l20 66h73v49h-93l20 66h73v102q0 71 46.5 117.5t119.5 46.5q67 0 113 -44t50 -113l-15 -53h-86v34q0 31 -17.5 52.5t-45.5 21.5
q-63 0 -63 -83v-81h195l-20 -66h-175v-49h160z" />
  </font>
</defs>
</svg>
